<?xml version="1.0" encoding="UTF-8" standalone="no"?>
<!-- Created with Inkscape (http://www.inkscape.org/) -->

<svg
   xmlns:dc="http://purl.org/dc/elements/1.1/"
   xmlns:cc="http://creativecommons.org/ns#"
   xmlns:rdf="http://www.w3.org/1999/02/22-rdf-syntax-ns#"
   xmlns:svg="http://www.w3.org/2000/svg"
   xmlns="http://www.w3.org/2000/svg"
   xmlns:sodipodi="http://sodipodi.sourceforge.net/DTD/sodipodi-0.dtd"
   xmlns:inkscape="http://www.inkscape.org/namespaces/inkscape"
   width="1024"
   height="1024"
   viewBox="0 0 1024 1024"
   id="svg2"
   version="1.1"
   inkscape:version="0.92.4 (5da689c313, 2019-01-14)"
   sodipodi:docname="Toolkit.svg">
  <defs
     id="defs">
    <font
       horiz-adv-x="1024"
       id="ToolkitIcons"
       inkscape:label="ToolkitIcons"
       horiz-origin-x="0"
       horiz-origin-y="0"
       vert-origin-x="0"
       vert-origin-y="0"
       vert-adv-y="0">
      <font-face
         units-per-em="1024"
         id="font-face929"
         ascent="1024"
         descent="0"
         font-family="Toolkit" />
      <missing-glyph
         d=""
         id="missing-glyph931" />
      <glyph
         glyph-name="Warning"
         id="glyph933"
         unicode="1"
         d="M 514.10938,991.95508 A 49.553761,49.78306 0 0 1 469.20117,967.30859 L 6.7460938,170.85938 A 49.553761,49.78306 0 0 1 49.544922,96 H 974.45508 a 49.553761,49.78306 0 0 1 42.79882,74.85938 L 554.79883,967.30859 a 49.553761,49.78306 0 0 1 -40.68945,24.64649 z M 512,843.4375 888.19141,195.55664 H 135.80859 Z M 511.66992,675.125 c -23.24465,0 -41.34871,-8.09986 -54.30469,-24.29492 -12.95599,-16.19506 -19.43554,-38.96306 -19.43554,-68.30469 0,-22.10146 3.05351,-44.57783 9.15039,-67.44141 6.09698,-22.67311 14.95775,-45.06065 26.58008,-67.1621 7.62112,-14.48034 14.28797,-24.86478 20.0039,-31.15235 5.9064,-6.09698 11.71377,-9.15039 17.42969,-9.15039 7.43065,0 15.24668,5.23961 23.43945,15.71875 8.19288,10.47913 16.76191,26.29851 25.7168,47.44727 8.19277,19.43413 14.29188,38.3877 18.29297,56.86914 4.19168,18.48143 6.29101,36.77072 6.29101,54.87109 0,29.34163 -6.38292,52.10963 -19.14843,68.30469 -12.7655,16.19506 -30.77088,24.29492 -54.01563,24.29492 z m 0,-303.79688 c -19.24345,0 -35.53209,-6.77119 -48.86914,-20.29882 -13.33715,-13.33705 -20.01172,-29.62559 -20.01172,-48.86914 0,-19.24351 6.67457,-35.62851 20.01172,-49.15625 C 476.13783,239.66686 492.42647,233 511.66992,233 c 19.43414,0 35.8192,6.66686 49.15625,20.00391 13.33705,13.52774 20.00391,29.91274 20.00391,49.15625 0,19.24355 -6.66686,35.53209 -20.00391,48.86914 -13.33705,13.52763 -29.72211,20.29882 -49.15625,20.29882 z" />
      <glyph
         glyph-name="Information/Info"
         id="glyph935"
         unicode="2"
         d="M 512,960 C 265.14496,960 64,758.855 64,512 64,265.145 265.14496,64 512,64 758.855,64 960,265.145 960,512 960,758.855 758.855,960 512,960 Z m 0,-96 C 706.9728,864 864,706.9728 864,512 864,317.0272 706.9728,160 512,160 317.02724,160 160,317.0272 160,512 c 0,194.9728 157.02724,352 352,352 z m 1.54688,-125.375 c -26.08044,0 -48.13236,-5.698 -66.14844,-17.0938 -17.84452,-11.3958 -26.76564,-24.9535 -26.76564,-40.6718 0,-15.1289 4.80548,-26.6252 14.41408,-34.4844 9.78016,-7.6627 24.01632,-11.4922 42.71876,-11.4922 27.62464,0 50.70352,5.8988 69.23436,17.6875 18.5308,11.9853 27.7969,26.6161 27.7969,43.9063 0,13.557 -5.3151,23.9724 -15.9531,31.2422 -10.63812,7.2697 -25.7366,10.9062 -45.29692,10.9062 z M 561.4141,620.4453 c -9.95178,0 -24.44666,-2.1618 -43.49222,-6.4844 -18.874,-4.3225 -37.92348,-10.2213 -57.14064,-17.6875 -17.67292,-6.6802 -29.59648,-12.965 -35.77344,-18.8593 -6.00536,-5.8944 -9.0078,-13.26 -9.0078,-22.1016 0,-10.6099 5.65996,-19.651 16.98436,-27.1172 0.85792,-0.5894 1.46152,-0.9832 1.80472,-1.1797 5.83376,-3.9296 9.77692,-9.4267 11.83592,-16.5 2.059,-7.0732 3.09376,-22.3064 3.09376,-45.6875 v -7.9531 -28.2969 c 0,-21.8092 -0.86232,-36.7412 -2.57812,-44.7969 -1.54424,-8.0556 -4.54672,-14.0469 -9.00784,-17.9765 -1.20108,-1.1789 -3.00408,-2.7461 -5.40624,-4.7109 -9.78016,-8.2522 -14.66404,-17.3937 -14.66408,-27.4141 4e-5,-14.5395 8.40376,-25.835 25.21876,-33.8906 C 460.26784,291.9299 484.37368,288 515.60156,288 c 30.71316,0 53.79204,3.7369 69.23434,11.2031 C 600.2783,306.6693 608,317.764 608,332.5 c 0,9.2345 -4.8917,18.4686 -14.6719,27.7031 -9.6085,9.2345 -14.414,20.7309 -14.414,34.4844 v 187.1484 17.9766 c 0,9.0381 -1.1132,14.736 -3.3438,17.0937 -2.2305,2.3578 -6.9498,3.5391 -14.1562,3.5391 z" />
      <glyph
         glyph-name="Error"
         id="glyph937"
         unicode="3"
         d="M 512,896 A 384,384 0 0 1 128,512 384,384 0 0 1 512,128.00002 384,384 0 0 1 895.9999,512 384,384 0 0 1 512,896 Z M 376.7656,736 c 5.9264,0 11.8576,-2.272 16.3984,-6.8125 L 512,610.3516 630.836,729.1875 c 9.0816,9.0811 23.7084,9.0812 32.7888,0 l 65.5629,-65.5625 c 9.0814,-9.0811 9.0814,-23.708 0,-32.7891 L 610.3516,512 729.1877,393.1641 c 9.0814,-9.0812 9.0814,-23.708 0,-32.7891 l -65.5629,-65.5625 c -9.0804,-9.0811 -23.7072,-9.0812 -32.7888,0 L 512,413.6485 393.164,294.8125 c -9.0816,-9.0811 -23.7076,-9.0812 -32.7888,0 l -65.5627,65.5625 c -9.0813,9.0812 -9.0812,23.708 0,32.7891 L 413.6484,512 294.8125,630.8359 c -9.0811,9.0811 -9.0812,23.7081 0,32.7891 l 65.5627,65.5625 c 4.5404,4.5405 10.464,6.8125 16.3904,6.8125 z" />
      <glyph
         glyph-name="Message"
         id="glyph939"
         unicode="4"
         d="M 512,832 C 246.90332,832 32,701.75555 32,541.09091 32.11175,471.03682 73.930518,403.35982 149.77344,350.49436 152,308.36364 152,250.18182 92,192 c 120,0 191.1945,32.67098 285.20509,70.07102 43.77063,-7.82644 89.15918,-11.82978 134.79491,-11.8892 265.09669,0 480,130.24445 480,290.90909 C 992,701.75555 777.09669,832 512,832 Z M 320,605.09091 c 35.34624,0 64,-28.6538 64,-64 0,-35.3462 -28.65376,-64 -64,-64 -35.34624,0 -64,28.6538 -64,64 0,35.3462 28.65376,64 64,64 z m 192,0 c 35.34624,0 64,-28.6538 64,-64 0,-35.3462 -28.65376,-64 -64,-64 -35.34624,0 -64,28.6538 -64,64 0,35.3462 28.65376,64 64,64 z m 192,0 c 35.34624,0 64,-28.6538 64,-64 0,-35.3462 -28.65376,-64 -64,-64 -35.34624,0 -64,28.6538 -64,64 0,35.3462 28.65376,64 64,64 z" />
      <glyph
         glyph-name="Close"
         id="glyph849"
         unicode="5"
         d="M 226.38471,896 A 98.012587,98.013445 0 0 1 158.11141,727.7086 L 373.60961,512.2084 157.66611,296.2649 A 98.012587,98.013445 0 1 1 296.26371,157.666 l 215.9417,215.9435 215.4963,-215.4982 a 98.012587,98.013445 0 1 1 138.5976,138.5969 l -215.4982,215.5002 215.0529,215.0548 a 98.012587,98.013445 0 1 1 -138.5957,138.597 L 512.20541,650.8053 296.70901,866.3055 A 98.012587,98.013445 0 0 1 226.38471,896 Z" />
      <glyph
         glyph-name="Success"
         id="glyph841"
         unicode="6"
         d="M 512,960 C 265.14496,960 64,758.855 64,512 64,265.145 265.14496,64 512,64 758.85496,64 960,265.145 960,512 960,758.855 758.85496,960 512,960 Z m 0,-96 C 706.97276,864 864,706.9728 864,512 864,317.0272 706.97276,160 512,160 317.02724,160 160,317.0272 160,512 160,706.9728 317.02724,864 512,864 Z M 700.2832,704 c -26.4258,0 -53.53965,-9.21227 -81.34179,-27.63477 -65.78925,-43.56672 -137.35846,-116.7587 -214.70899,-219.57617 -3.85376,-4.97905 -7.56994,-7.46679 -11.14844,-7.46679 -4.67957,0 -12.5244,14.93622 -23.53515,44.81054 -5.50538,15.93298 -13.62585,23.90039 -24.36133,23.90039 h -0.82617 c -13.2129,0 -33.03318,-5.47772 -59.45899,-16.43164 C 265.63353,493.63508 256,483.5522 256,471.35352 c 0,-33.35967 9.90916,-72.19619 29.72852,-116.50977 15.69032,-35.10233 26.70202,-54.14733 33.0332,-57.13477 C 333.9015,291.23621 348.35179,288 362.11523,288 c 41.84086,0 68.54223,9.46045 80.10352,28.38086 33.85806,55.2675 139.28732,174.76509 316.28516,358.49219 6.33118,6.72172 9.49609,12.32354 9.49609,16.80468 0,5.47696 -1.51501,8.58713 -4.54297,9.33399 C 756.30004,703.00334 735.24234,704 700.2832,704 Z" />
      <glyph
         glyph-name="Hourglass/Loading"
         id="glyph845"
         unicode="7"
         d="M 239.99805,896 C 213.68001,895.997 192.00264,874.32024 192,848.00195 V 848 624 v -0.002 c 0.001,-16.02927 8.03817,-31.04359 21.375,-39.93555 L 345.46875,512 213.375,439.9375 C 200.03817,431.04554 192.0013,416.03122 192,400.00195 V 400 176 v -0.002 C 192.003,149.68001 213.67976,128.00264 239.99805,128 h 0.002 544 0.002 c 26.31784,0.003 47.99541,21.67976 47.99805,47.99805 v 0.002 224 0.002 c -10e-4,16.02927 -8.03817,31.04359 -21.375,39.93555 L 678.53125,512 810.625,584.0625 c 13.33683,8.89196 21.3737,23.90628 21.375,39.93555 v 0.002 224 0.002 C 831.99702,874.31989 810.32024,895.99736 784.00195,896 H 784 240 Z M 288,800 H 736 V 649.6875 l -170.625,-97.75 -0.002,-0.002 c -28.02083,-18.68802 -28.02083,-61.18308 0,-79.8711 l 0.002,-0.002 L 736,374.3125 V 224 H 288 v 150.3125 l 170.625,97.75 0.002,0.002 c 28.02083,18.68802 28.02083,61.18308 0,79.8711 l -0.002,0.002 -170.625,97.75 z m 32,-125.74805 v -1.72851 h 3.37695 z m 3.37695,-1.72851 L 512,576 700.62305,672.52344 Z m 377.2461,0 H 704 v 1.72851 z M 512,384 320,320 v -64 h 384 v 64 z" />
      <glyph
         glyph-name="Questionmark"
         id="glyph868"
         unicode="8"
         d="M 512,960 C 265.145,960 64,758.855 64,512 64,265.145 265.145,64 512,64 758.855,64 960,265.145 960,512 960,758.855 758.855,960 512,960 Z m 0,-96 C 706.9728,864 864,706.9728 864,512 864,317.0272 706.9728,160 512,160 317.0273,160 160,317.0272 160,512 c 0,194.9728 157.0273,352 352,352 z m 0,-64 C 468.3333,800 423.9046,786.8147 388.1504,757.01953 352.3962,727.22436 328,678.93333 328,624 h 112 c 0,25.06667 7.6038,36.77564 19.8496,46.98047 C 472.0954,681.1853 491.6667,688 512,688 c 20.3333,0 39.9046,-6.8147 52.1504,-17.01953 C 576.3962,660.77564 584,649.06667 584,624 c 0,-11.55556 -1.7533,-14.78673 -8.2812,-23.21875 -6.5282,-8.43202 -19.6012,-19.76648 -36.5958,-34.63672 C 505.1339,536.40406 456,482.66667 456,400 h 112 c 0,45.33333 14.8661,55.59594 44.877,81.85547 15.0054,13.12976 33.9323,27.7953 51.4042,50.36328 C 681.7532,554.78673 696,587.55556 696,624 696,678.93333 671.6038,727.22436 635.8496,757.01953 600.0954,786.8147 555.6667,800 512,800 Z m 0,-432 a 80,80 0 0 1 -80,-80 80,80 0 0 1 80,-80 80,80 0 0 1 80,80 80,80 0 0 1 -80,80 z" />
      <glyph
         glyph-name="Screen Size"
         id="glyph840"
         unicode="9"
         d="m 192,895.99999 c -35.456,0 -64,-28.544 -64,-64 V 429.25391 l 96,96 v 274.74608 h 274.7461 l 96,96 z m 493.2539,0 -96,-96 H 709.4922 L 562.7461,653.25391 653.2539,562.74609 800,709.49219 V 589.25391 l 96,96 V 895.99999 Z M 896,594.74609 l -96,-96 V 224 H 525.2539 l -96,-96 H 832 c 35.456,0 64,28.544 64,64 z M 370.7461,461.25391 224,314.50781 v 120.23828 l -96,-96 V 128 h 210.7461 l 96,96 H 314.5078 l 146.7461,146.74609 z" />
      <glyph
         glyph-name="Window Minimize/Win Min"
         id="glyph4538"
         unicode="a"
         d="m 224,448 h 576 c 53.184,0 96,-42.816 96,-96 0,-53.184 -42.816,-96 -96,-96 H 224 c -53.184,0 -96,42.816 -96,96 0,53.184 42.816,96 96,96 z" />
      <glyph
         glyph-name="Window Close/Win Close"
         id="glyph4540"
         unicode="0"
         d="m 226.38358,895.99999 a 98.012587,98.013445 0 0 1 -68.2733,-168.2914 l 215.4982,-215.5002 -215.9435,-215.9435 a 98.012587,98.013445 0 1 1 138.5976,-138.5989 l 215.9417,215.9435 215.4963,-215.4982 a 98.012587,98.013445 0 1 1 138.5976,138.5969 l -215.4982,215.5002 215.0529,215.0548 a 98.012587,98.013445 0 1 1 -138.5957,138.597 l -215.0529,-215.0549 -215.4964,215.5002 a 98.012587,98.013445 0 0 1 -70.3243,29.6945 z" />
      <glyph
         glyph-name="Window Maximize/Win Max"
         id="glyph4542"
         unicode="b"
         d="m 224,896 c -53.184,0 -96,-42.816 -96,-96 V 224 c 0,-53.184 42.816,-96 96,-96 h 576 c 53.184,0 96,42.816 96,96 v 576 c 0,53.184 -42.816,96 -96,96 z M 288,736 H 736 V 288 H 288 Z" />
      <glyph
         glyph-name="Window Maximize Vertical/Win Max Vert"
         id="glyph4548"
         unicode="c"
         d="m 352,896 c -53.184,0 -96,-42.816 -96,-96 V 224 c 0,-53.184 42.816,-96 96,-96 h 320 c 53.184,0 96,42.816 96,96 v 576 c 0,53.184 -42.816,96 -96,96 z M 416,736 H 608 V 288 H 416 Z" />
      <glyph
         glyph-name="Window Maximize Horizontal/Win Max Horiz"
         id="glyph4552"
         unicode="d"
         d="m 896,672 c 0,53.184 -42.816,96 -96,96 H 224 c -53.184,0 -96,-42.816 -96,-96 V 352 c 0,-53.184 42.816,-96 96,-96 h 576 c 53.184,0 96,42.816 96,96 z M 736,608 V 416 H 288 v 192 z" />
      <glyph
         glyph-name="Window Shrink/Win Shrink"
         id="glyph4560"
         unicode="e"
         d="m 224,768 h 576 c 53.184,0 96,-42.816 96,-96 0,-53.184 -42.816,-96 -96,-96 H 224 c -53.184,0 -96,42.816 -96,96 0,53.184 42.816,96 96,96 z" />
      <glyph
         glyph-name="Window Resize"
         id="glyph855"
         unicode="f"
         d="M 128,128 896,896 V 128 Z" />
      <glyph
         glyph-name="Unchecked"
         id="glyph880"
         unicode="g"
         d="M 512,960 C 265.145,960 64,758.855 64,512 64,265.145 265.145,64 512,64 758.855,64 960,265.145 960,512 960,758.855 758.855,960 512,960 Z m 0,-96 C 706.9728,864 864,706.9728 864,512 864,317.0272 706.9728,160 512,160 317.0273,160 160,317.0272 160,512 c 0,194.9728 157.0273,352 352,352 z" />
      <glyph
         glyph-name="Checked"
         id="glyph882"
         unicode="h"
         d="M 512,960 C 265.14496,960 64,758.855 64,512 64,265.145 265.14496,64 512,64 758.85496,64 960,265.145 960,512 960,758.855 758.85496,960 512,960 Z m 0,-96 C 706.97276,864 864,706.9728 864,512 864,317.0272 706.97276,160 512,160 317.02724,160 160,317.0272 160,512 c 0,194.9728 157.02724,352 352,352 z m 0,-96 A 256,256 0 0 1 256,512 256,256 0 0 1 512,256 256,256 0 0 1 768,512 256,256 0 0 1 512,768 Z" />
      <glyph
         glyph-name="Speaker/Speaker Active/Sound"
         id="glyph891"
         unicode="i"
         d="m 529.1055,959.98637 c -0.8356,0.019 -1.6762,0.017 -2.5215,-0.01 -11.1338,-0.328 -21.8071,-4.5166 -30.1914,-11.8496 L 253.9648,736.00207 H 80 c -26.5086,0 -47.9973,-21.491 -48,-48 v -352.002 c 0,-26.509 21.4914,-47.998 48,-48 H 253.9648 L 496.3926,75.87117 c 14.1756,-12.398 34.2904,-15.3621 51.4394,-7.5801 17.149,7.782 28.1641,24.8731 28.168,43.7051 v 800.0078 c -0.01,26.2154 -20.9915,47.4063 -46.8945,47.9824 z m 352.832,-135.4277 a 48.004804,48.004804 0 0 1 -39.375,-72.5566 c 85.7822,-148.5792 85.7822,-331.4208 0,-480 a 48.004804,48.004804 0 1 1 83.1387,-48.002 c 102.8541,178.1485 102.8541,397.8536 0,576.002 a 48.004804,48.004804 0 0 1 -43.7637,24.5566 z M 480,806.22277 v -588.4454 l -176.3926,154.3457 c -8.7499,7.656 -19.981,11.876 -31.6074,11.877 H 128 v 256.002 h 144 c 11.6262,0 22.8572,4.22 31.6074,11.875 z m 291.0859,-45.6641 a 48.004804,48.004804 0 0 1 -39.373,-72.5566 c 62.9172,-108.9758 62.9172,-243.0242 0,-352 a 48.004804,48.004804 0 1 1 83.1367,-48.002 c 79.989,138.5451 79.989,309.457 0,448.002 a 48.004804,48.004804 0 0 1 -43.7637,24.5566 z m -110.8515,-64 a 48.004804,48.004804 0 0 1 -39.3731,-72.5566 c 40.0522,-69.3725 40.0522,-154.6275 0,-224 A 48.004804,48.004804 0 1 1 704,352.00007 c 57.124,98.9419 57.124,221.0603 0,320.002 a 48.004804,48.004804 0 0 1 -43.7656,24.5566 z" />
      <glyph
         glyph-name="Speaker Mute/Mute"
         id="glyph893"
         unicode="j"
         d="m 529.1055,959.98703 c -0.8356,0.019 -1.6762,0.015 -2.5215,-0.01 -11.1338,-0.3276 -21.8071,-4.5166 -30.1914,-11.8496 L 253.9648,736.00273 H 80 c -26.5086,0 -47.9973,-21.4931 -48,-48.002 v -352.002 c 0,-26.5089 21.4914,-47.9973 48,-48 H 253.9648 L 496.3926,75.86983 c 14.1756,-12.3978 34.2904,-15.3603 51.4394,-7.5781 17.149,7.7821 28.1641,24.8728 28.168,43.7051 v 800.0078 c -0.01,26.2154 -20.9915,47.4069 -46.8945,47.9824 z M 480,806.22143 v -588.4453 l -176.3926,154.3476 c -8.7499,7.656 -19.981,11.8762 -31.6074,11.877 H 128 v 256 h 144 c 11.6262,3e-4 22.8572,4.2197 31.6074,11.875 z m 223.498,-117.7363 a 48.0048,48.0048 0 0 1 -33.4394,-82.4258 l 94.0586,-94.0586 -94.0586,-94.0586 a 48.0048,48.0048 0 1 1 67.8828,-67.8828 l 94.0586,94.0586 94.0586,-94.0586 a 48.0048,48.0048 0 1 1 67.8828,67.8828 l -94.0586,94.0586 94.0586,94.0586 a 48.0048,48.0048 0 0 1 -34.8848,82.4043 48.0048,48.0048 0 0 1 -32.998,-14.5215 L 832,579.88353 l -94.0586,94.0586 a 48.0048,48.0048 0 0 1 -34.4434,14.543 z" />
      <glyph
         glyph-name="Gear/Cogwheel/Cog"
         id="glyph908"
         unicode="k"
         d="M 448,1024 430.85547,886.84766 A 384,384 0 0 1 303.95508,834.71875 L 195.2168,919.29297 104.70703,828.7832 189.50977,719.75195 a 384,384 0 0 1 -52.625,-126.64062 L 0,576 V 448 L 137.15234,430.85547 A 384,384 0 0 1 189.28125,303.95508 L 104.70703,195.2168 195.2168,104.70703 304.24805,189.50977 a 384,384 0 0 1 126.64062,-52.625 L 448,0 h 128 l 17.14453,137.15234 a 384,384 0 0 1 126.90039,52.12891 l 108.73828,-84.57422 90.50977,90.50977 -84.80274,109.03125 a 384,384 0 0 1 52.625,126.64062 L 1024,448 V 576 L 886.84766,593.14453 A 384,384 0 0 1 834.71875,720.04492 L 919.29297,828.7832 828.7832,919.29297 719.75195,834.49023 a 384,384 0 0 1 -126.64062,52.625 L 576,1024 Z M 512,736 A 224,224 0 0 0 736,512 224,224 0 0 0 512,288 224,224 0 0 0 288,512 224,224 0 0 0 512,736 Z" />
      <glyph
         glyph-name="Power"
         id="glyph4549"
         unicode="l"
         d="M 511.03516,960.9043 A 64.0064,64.0064 0 0 1 448,896 V 576 a 64.0064,64.0064 0 1 1 128,0 v 320 a 64.0064,64.0064 0 0 1 -64.96484,64.9043 z M 289.15625,892.37109 a 48.0048,48.0048 0 0 1 -27.05469,-8.54492 C 98.833263,774.09646 26.175915,570.10334 83.316406,381.86914 140.4569,193.63495 314.25337,64.45479 510.96875,64.00195 707.68413,63.54912 882.07357,191.92736 940.08008,379.89648 998.08658,567.86561 926.3688,772.19165 763.60742,882.67188 A 48.0048,48.0048 0 1 1 709.69141,803.24219 C 837.87488,716.23298 894.0329,556.24103 848.34961,408.20508 802.66632,260.16913 666.11356,159.64337 511.18945,160 c -154.9241,0.35663 -291.01046,101.5092 -336.01172,249.75391 -45.00125,148.2447 11.89191,307.97834 140.47461,394.39648 a 48.0048,48.0048 0 0 1 -26.49414,88.2207 48.0048,48.0048 0 0 0 -0.002,0 z" />
      <glyph
         glyph-name="Phase/Phase Invert"
         id="glyph4556"
         unicode="m"
         d="m 911.52539,960.17773 c -12.26972,0 -24.53971,-4.69987 -33.94141,-14.10156 L 792.48633,860.97852 C 715.63768,922.88597 618.03564,960 512,960 265.14496,960 64,758.855 64,512 64,405.9638 101.11346,308.36055 163.02148,231.51172 l -85.095699,-85.0957 c -18.803383,-18.80339 -18.803383,-49.07943 0,-67.88282 l 0.607422,-0.60742 c 18.803384,-18.80338 49.079427,-18.80338 67.882817,0 l 85.0957,85.0957 C 308.36055,101.11346 405.96378,64 512,64 c 246.85496,0 448,201.145 448,448 0,106.03664 -37.11496,203.6393 -99.02344,280.48828 l 85.09766,85.09766 c 18.80338,18.80338 18.80338,49.07747 0,67.88086 l -0.60742,0.60937 c -9.40169,9.40169 -21.67169,14.10156 -33.94141,14.10156 z M 512,864 c 79.95191,0 153.51886,-26.4112 212.49805,-71.00977 L 231.00977,299.5 C 186.41062,358.4794 160,432.04751 160,512 160,706.9728 317.02724,864 512,864 Z M 792.99023,724.5 C 837.58937,665.5206 864,591.95249 864,512 864,317.0272 706.97276,160 512,160 c -79.95247,0 -153.5206,26.41063 -212.5,71.00977 z" />
      <glyph
         glyph-name="Arrow Down"
         id="glyph4541"
         unicode="n"
         d="M 128,640 H 896 L 512,256 Z" />
      <glyph
         glyph-name="Arrow Up"
         id="glyph4543"
         unicode="o"
         d="M 128,384 H 896 L 512,768 Z" />
      <glyph
         glyph-name="Arrow Left"
         id="glyph4545"
         unicode="p"
         d="M 640,896 V 128 L 256,512 Z" />
      <glyph
         glyph-name="Arrow Right"
         id="glyph4547"
         unicode="q"
         d="M 384,896 V 128 l 384,384 z" />
      <glyph
         glyph-name="Hide"
         id="glyph4590"
         unicode="r"
         d="m 862.74287,880.61591 a 64.0064,64.0064 0 0 1 -43.9981,-19.3633 l -111.6191,-111.6192 c -66.3794,33.237 -134.6519,50.4445 -203.4688,50.461 -163.1105,0.039 -318.8025,-97.2746 -446.705099,-276.1817 -12.9621,-18.1351 -11.7349,-42.8071 2.9629,-59.5664 61.391499,-69.9935 127.342999,-125.7126 196.093799,-165.83 l -45.2637,-45.2637 a 64.0064,64.0064 0 1 1 90.5098,-90.5098 l 608,608 a 64.0064,64.0064 0 0 1 -46.5117,109.8731 z m -414.7422,-192.6192 c 35.3462,0 64,-28.6538 64,-64 0,-35.3462 -28.6538,-64 -64,-64 -35.3462,0 -64,28.6538 -64,64 0,35.3462 28.6538,64 64,64 z m -94.8535,-20.2226 c -21.587,-31.7985 -33.1339,-69.3438 -33.1465,-107.7774 0.03,-53.0167 21.9086,-102.7633 59.0644,-138.4238 l -52.5547,-52.5547 c -56.9164,29.6046 -113.3878,72.7742 -168.2343,130.127 62.7732,80.517 128.3682,135.9169 194.8711,168.6289 z m 504.625,-24.1035 -67.8653,-67.8653 c 25.2221,-22.9579 50.3524,-49.1256 75.2793,-78.623 -106.4082,-116.1338 -219.1545,-171.7888 -330.8496,-176.9473 l -90.5898,-90.5898 c 22.9997,-3.6424 46.1244,-5.5955 69.3203,-5.7969 160.652,-1.3951 318.3401,81.6152 451.77342,241.3789 14.4961,17.3589 14.9103,42.4813 0.9942,60.3086 -34.79542,44.5663 -70.90972,84.0221 -108.06252,118.1348 z" />
      <glyph
         glyph-name="Show"
         id="glyph4592"
         unicode="s"
         d="m 503.65777,800.13169 c -163.1106,0.039 -318.8027,-97.2747 -446.705096,-276.1817 a 48.0048,48.0048 0 0 1 2.961,-59.5664 c 135.198296,-154.1423 292.500296,-239.1029 453.152296,-240.498 160.652,-1.3952 318.3421,81.6152 451.77535,241.3789 a 48.0048,48.0048 0 0 1 0.9922,60.3086 c -139.00025,178.0332 -299.06515,274.5196 -462.17575,274.5586 z m -55.6582,-112.0977 a 64,64 0 0 0 64,-64 64,64 0 0 0 -64,-64 64,64 0 0 0 -64,64 64,64 0 0 0 64,64 z m -94.8535,-20.2207 a 192,192 0 0 1 -33.1465,-107.7793 192,192 0 0 1 192,-192 192,192 0 0 1 192,192 192,192 0 0 1 -26.6484,97.1328 c 62.7394,-33.903 125.9116,-86.6693 187.8339,-159.9453 -112.9022,-123.2217 -232.9385,-178.3676 -351.2851,-177.3398 -118.4345,1.0285 -240.6022,59.0232 -355.625,179.3027 62.7732,80.5167 128.368,135.9173 194.8711,168.6289 z" />
      <glyph
         glyph-name="High Pass/Hi Pass"
         id="glyph4583"
         unicode="t"
         d="m 321.05981,751.99492 a 48.0048,48.0048 0 0 1 -42.9746,-26.6172 L 87.333312,341.99492 a 48.0048,48.0048 0 1 1 85.949198,-42.7637 l 177.5078,356.7637 h 542.52541 a 48.0048,48.0048 0 1 1 0,96 z" />
      <glyph
         glyph-name="Low Pass/Lo Pass"
         id="glyph4585"
         unicode="u"
         d="m 130.68442,751.99461 a 48.0048,48.0048 0 1 1 0,-96 H 673.2098 l 177.50782,-356.7637 a 48.0048,48.0048 0 1 1 85.94922,42.7637 l -190.75196,383.3828 a 48.0048,48.0048 0 0 1 -42.97461,26.6172 z" />
      <glyph
         glyph-name="High Shelf/Hi Shelf"
         id="glyph4587"
         unicode="v"
         d="m 639.10548,751.99515 a 48.0048,48.0048 0 0 1 -40.02344,-21.5039 L 359.10548,368.00485 H 130.6836 a 48.0048,48.0048 0 1 1 0,-96 h 254.21094 a 48.0048,48.0048 0 0 1 40.02344,21.502 l 239.97656,362.4883 h 228.42187 a 48.0048,48.0048 0 1 1 0,96 z" />
      <glyph
         glyph-name="Low Shelf/Lo Shelf"
         id="glyph4589"
         unicode="w"
         d="m 130.68359,751.99515 a 48.0048,48.0048 0 1 1 0,-96 h 228.42188 l 239.97657,-362.4883 a 48.0048,48.0048 0 0 1 40.02344,-21.502 h 254.21093 a 48.0048,48.0048 0 1 1 0,96 H 664.89453 l -239.97656,362.4864 a 48.0048,48.0048 0 0 1 -40.02344,21.5039 z" />
      <glyph
         glyph-name="Band Pass"
         id="glyph4591"
         unicode="x"
         d="m 511.99928,751.99444 c -62.0281,0 -116.9675,-30.9459 -165.8203,-70.6582 -48.8528,-39.7122 -92.7852,-90.1559 -130.6895,-139.9726 -75.8085,-99.6334 -127.646499,-198.4102 -127.646499,-198.4102 a 48.0048,48.0048 0 1 1 84.955099,-44.707 c 0,0 49.0406,92.9222 119.0899,184.9863 35.0246,46.0321 75.2659,91.437 114.8457,123.6113 39.5798,32.1743 77.3313,49.1504 105.2656,49.1504 27.9343,0 65.6858,-16.9761 105.2656,-49.1504 39.5798,-32.1743 79.8211,-77.5792 114.8457,-123.6113 70.0493,-92.0641 119.0899,-184.9863 119.0899,-184.9863 a 48.0048,48.0048 0 1 1 84.955,44.707 c 0,0 -51.8379,98.7768 -127.6464,198.4102 -37.9043,49.8167 -81.8367,100.2604 -130.6895,139.9726 -48.8528,39.7123 -103.7922,70.6582 -165.8203,70.6582 z" />
      <glyph
         glyph-name="Band Reject"
         id="glyph4593"
         unicode="y"
         d="m 130.02654,751.99126 a 48.0048,48.0048 0 0 1 -42.187501,-70.957 c 0,0 51.837901,-98.7768 127.646401,-198.4102 37.9043,-49.8167 81.8367,-100.2604 130.6895,-139.9726 48.8528,-39.7123 103.7922,-70.6602 165.8203,-70.6602 62.0281,0 116.9675,30.9479 165.8203,70.6602 48.8528,39.7122 92.7852,90.1559 130.6895,139.9726 75.8085,99.6334 127.6464,198.4102 127.6464,198.4102 a 48.0048,48.0048 0 1 1 -84.955,44.7051 c 0,0 -49.0406,-92.9203 -119.0899,-184.9844 -35.0246,-46.0321 -75.2659,-91.4371 -114.8457,-123.6113 -39.5798,-32.1743 -77.3313,-49.1524 -105.2656,-49.1524 -27.9343,0 -65.6858,16.9781 -105.2656,49.1524 -39.5798,32.1742 -79.8211,77.5792 -114.8457,123.6113 -70.0493,92.0641 -119.0899,184.9844 -119.0899,184.9844 a 48.0048,48.0048 0 0 1 -42.7675,26.2519 z" />
      <glyph
         glyph-name="Notch"
         id="glyph4595"
         unicode="z"
         d="m 130.6836,751.9955 a 48.0048,48.0048 0 1 1 0,-96 h 248.4453 l 86.2852,-347.5761 a 48.0048,48.0048 0 0 1 93.1718,0 l 86.2852,347.5761 h 248.4453 a 48.0048,48.0048 0 1 1 0,96 H 607.3281 A 48.0048,48.0048 0 0 1 560.7422,715.56 L 512,519.2123 463.2578,715.56 a 48.0048,48.0048 0 0 1 -46.5859,36.4355 z" />
      <glyph
         glyph-name="Parametric"
         id="glyph4597"
         unicode="A"
         d="m 512.02988,751.99979 c -61.9496,0 -111.0832,-35.9804 -143.9707,-78.2949 -32.8876,-42.3145 -55.7944,-92.5094 -78.9746,-139.9726 -23.1803,-47.4633 -46.523,-91.9925 -72.2012,-121.418 -25.6782,-29.4255 -49.0622,-43.9876 -86.5762,-44.3047 a 48.0048,48.0048 0 1 1 0.8106,-95.9961 c 66.8225,0.5649 120.8025,34.442 158.0976,77.1797 37.2951,42.7377 62.5354,94.0968 86.1309,142.4101 23.5954,48.3134 45.6556,93.7838 68.5117,123.1915 22.8561,29.4076 40.2443,41.205 68.1719,41.205 27.9275,0 49.0264,-12.994 74.666,-42.957 25.6396,-29.963 50.7638,-75.2582 76.3418,-123.0313 25.578,-47.773 51.6027,-97.9772 86.1601,-139.8222 34.5575,-41.845 82.8003,-77.554 143.6563,-78.1758 a 48.0048,48.0048 0 1 1 0.9824,95.9961 c -25.4657,0.2602 -45.5791,12.9904 -70.6172,43.3086 -25.0381,30.3182 -49.8474,76.0023 -75.5488,124.0059 -25.7014,48.0035 -52.3015,98.3736 -88.0352,140.1328 -35.7336,41.7591 -85.6559,76.5429 -147.6054,76.5429 z" />
      <glyph
         glyph-name="Sine"
         id="glyph4582"
         unicode="B"
         d="m 304,896.00088 c -30,0 -57.52034,-13.6295 -79.58008,-32.6348 -22.05974,-19.0053 -40.82408,-43.7784 -59.44922,-74.4551 C 127.72044,727.55772 91.308228,641.57522 50.796875,528.14352 a 48.0048,48.0048 0 1 1 90.406245,-32.2872 c 39.48865,110.5683 75.07644,192.5858 105.82618,243.2325 15.37486,25.3233 29.61052,42.55216 40.05078,51.54676 10.44026,8.9947 14.91992,9.3653 16.91992,9.3653 2,0 6.47966,-0.3706 16.91992,-9.3653 10.44026,-8.9946 24.67592,-26.22346 40.05078,-51.54676 30.74974,-50.6467 66.33753,-132.6642 105.82618,-243.2325 40.51135,-113.43176 76.92356,-199.41406 114.17382,-260.76746 18.62513,-30.6767 37.38948,-55.4478 59.44922,-74.4532 C 662.47966,141.63036 690,128.00096 720,128.00096 c 30,0 57.52034,13.6294 79.58008,32.6347 22.05974,19.0054 40.82409,43.7765 59.44922,74.4532 37.25026,61.3534 73.66247,147.3357 114.17382,260.76746 a 48.0048,48.0048 0 1 1 -90.40624,32.2872 C 843.30823,417.57522 807.72044,335.55776 776.9707,284.91106 761.59583,259.58776 747.36018,242.36086 736.91992,233.36616 726.47966,224.37146 722,224.00096 720,224.00096 c -2,0 -6.47966,0.3705 -16.91992,9.3652 -10.44026,8.9947 -24.67591,26.2216 -40.05078,51.5449 -30.74974,50.6467 -66.33753,132.66416 -105.82618,243.23246 -40.51135,113.4317 -76.92356,199.4142 -114.17382,260.76746 -18.62514,30.6767 -37.38948,55.4498 -59.44922,74.4551 C 361.52034,882.37138 334,896.00088 304,896.00088 Z" />
      <glyph
         glyph-name="Pulse"
         id="glyph4584"
         unicode="C"
         d="m 96,912.00088 a 48.0048,48.0048 0 0 1 -48,-48 V 512.00092 a 48.0048,48.0048 0 1 1 96,0 V 816.00088 H 464 V 159.99896 a 48.0048,48.0048 0 0 1 48,-48 h 416 a 48.0048,48.0048 0 0 1 48,48 v 352.00196 a 48.0048,48.0048 0 1 1 -96,0 V 207.99896 H 560 v 656.00192 a 48.0048,48.0048 0 0 1 -48,48 z" />
      <glyph
         glyph-name="Sawtooth"
         id="glyph4586"
         unicode="D"
         d="m 510.58398,911.97348 a 48.0048,48.0048 0 0 1 -29.58984,-11.33 L 64.994141,548.64352 a 48.0048,48.0048 0 1 1 62.011719,-73.2852 L 464,760.50672 V 159.99896 a 48.0048,48.0048 0 0 1 79.00586,-36.6406 l 416,351.99996 a 48.0048,48.0048 0 1 1 -62.01172,73.2852 L 560,263.49316 v 600.50772 a 48.0048,48.0048 0 0 1 -49.41602,47.9726 z" />
      <glyph
         glyph-name="Triangle"
         id="glyph4588"
         unicode="E"
         d="m 285.89648,943.94802 a 48.0048,48.0048 0 0 1 -40.82812,-26.4823 l -192.000001,-384 a 48.0048,48.0048 0 1 1 85.863281,-42.9316 L 290.59375,793.86028 662.21289,136.38176 a 48.0048,48.0048 0 0 1 82.2832,-2.1523 l 224,351.99996 a 48.0048,48.0048 0 1 1 -80.99218,51.541 L 706.4375,253.23726 329.78711,919.61812 a 48.0048,48.0048 0 0 1 -43.89063,24.3299 z" />
      <glyph
         glyph-name="Bypass"
         id="glyph4608"
         unicode="F"
         d="M 512,960 C 303.79847,960 128.11347,816.91384 78.199219,624 H 178.07031 C 224.66298,763.75152 356.2166,864 512,864 c 107.81217,0 204.01869,-48.01718 268.49219,-123.91016 15.49719,7.96137 32.90714,12.38602 50.97461,12.39454 h 0.002 c 27.93348,0.0128 54.82945,-10.44999 75.38672,-29.13282 C 831.18066,864.04399 682.49587,960 512,960 Z M 831.49805,688.48438 c -19.53574,-0.009 -37.11757,-11.85548 -44.4617,-29.95821 -7.34413,-18.10273 -2.98552,-38.85039 11.02224,-52.46758 L 844.11719,560 H 80.683616 C 53.908453,560.37867 32,538.77782 32,512 32,485.22218 53.908453,463.62133 80.683616,464 H 844.11719 l -46.0586,-46.05859 c -19.18119,-18.66882 -19.38927,-49.41864 -0.46255,-68.34537 18.92673,-18.92672 49.67655,-18.71864 68.34537,0.46255 l 123.80664,123.80664 c 25.23725,19.26802 25.15075,57.29031 -0.17383,76.44336 L 865.94141,673.94141 c -9.04402,9.30312 -21.46868,14.54916 -34.44336,14.54297 z M 78.199219,400 C 128.11347,207.08616 303.79847,64 512,64 682.50114,64 831.18869,159.96256 906.86133,300.66211 872.14085,269.19368 821.08371,263.57014 780.54688,283.97266 716.07309,208.04309 619.84213,160 512,160 356.2166,160 224.66298,260.24848 178.07031,400 Z" />
      <glyph
         glyph-name="Stairs/Aliased"
         id="glyph4581"
         unicode="G"
         d="M 224,944 A 48.0048,48.0048 0 0 1 176,896 V 816 H 160 A 48.0048,48.0048 0 0 1 112,768 V 688 H 96 A 48.0048,48.0048 0 0 1 48,640 V 512 a 48.0048,48.0048 0 1 1 96,0 v 80 h 16 a 48.0048,48.0048 0 0 1 48,48 v 80 h 16 a 48.0048,48.0048 0 0 1 48,48 v 80 h 32 v -80 a 48.0048,48.0048 0 0 1 48,-48 h 16 v -80 a 48.0048,48.0048 0 0 1 48,-48 h 16 v -80 a 48.0048,48.0048 0 0 1 48,-48 h 16 v -80 a 48.0048,48.0048 0 0 1 48,-48 h 16 v -80 a 48.0048,48.0048 0 0 1 48,-48 h 16 v -80 a 48.0048,48.0048 0 0 1 48,-48 h 128 a 48.0048,48.0048 0 0 1 48,48 v 80 h 16 a 48.0048,48.0048 0 0 1 48,48 v 80 h 16 a 48.0048,48.0048 0 0 1 48,48 v 128 a 48.0048,48.0048 0 1 1 -96,0 v -80 h -16 a 48.0048,48.0048 0 0 1 -48,-48 v -80 h -16 a 48.0048,48.0048 0 0 1 -48,-48 v -80 h -32 v 80 a 48.0048,48.0048 0 0 1 -48,48 h -16 v 80 a 48.0048,48.0048 0 0 1 -48,48 h -16 v 80 a 48.0048,48.0048 0 0 1 -48,48 h -16 v 80 a 48.0048,48.0048 0 0 1 -48,48 h -16 v 80 a 48.0048,48.0048 0 0 1 -48,48 h -16 v 80 a 48.0048,48.0048 0 0 1 -48,48 z" />
      <glyph
         glyph-name="Stereo"
         id="glyph4599"
         unicode="H"
         d="M 384,832 C 207.83742,832 64,688.1626 64,512 64,335.8374 207.83742,192 384,192 c 51.73146,0 100.66752,12.4167 144,34.4004 C 571.33248,204.4167 620.26854,192 672,192 848.16258,192 992,335.8374 992,512 992,688.1626 848.16258,832 672,832 620.26854,832 571.33248,819.5833 528,797.5996 484.66752,819.5833 435.73146,832 384,832 Z m 0,-96 c 18.55911,0 36.56394,-2.2402 53.77734,-6.4375 C 384.61417,672.3821 352,595.8619 352,512 352,428.1381 384.61417,351.6179 437.77734,294.4375 420.56394,290.2402 402.55911,288 384,288 c -124.28033,0 -224,99.7197 -224,224 0,124.2803 99.71967,224 224,224 z m 288,0 c 124.28033,0 224,-99.7197 224,-224 0,-124.2803 -99.71967,-224 -224,-224 -18.55911,0 -36.56394,2.2402 -53.77734,6.4375 C 671.38583,351.6179 704,428.1381 704,512 704,595.8619 671.38583,672.3821 618.22266,729.5625 635.43606,733.7598 653.44089,736 672,736 Z M 528,683.9531 C 576.9833,642.9573 608,581.3021 608,512 608,442.6979 576.9833,381.0427 528,340.0469 479.0167,381.0427 448,442.6979 448,512 c 0,69.3021 31.0167,130.9573 80,171.9531 z" />
      <glyph
         glyph-name="Mono"
         id="glyph4601"
         unicode="I"
         d="M 512,832 C 335.83742,832 192,688.16258 192,512 192,335.83742 335.83742,192 512,192 c 176.16258,0 320,143.83742 320,320 0,176.16258 -143.83742,320 -320,320 z m 0,-96 c 124.28033,0 224,-99.71967 224,-224 0,-124.28033 -99.71967,-224 -224,-224 -124.28033,0 -224,99.71967 -224,224 0,124.28033 99.71967,224 224,224 z m 0,-96 A 128,128 0 0 1 384,512 128,128 0 0 1 512,384 128,128 0 0 1 640,512 128,128 0 0 1 512,640 Z" />
      <glyph
         glyph-name="Zoom/Magnifier"
         id="glyph4603"
         unicode="J"
         d="M 464,944 C 252.4912,944 80,771.5088 80,560 80,348.4912 252.4912,176 464,176 c 75.0186,0 145.1248,21.7051 204.3711,59.1484 -7.9567,-21.6141 -7.7141,-40.0574 2.6269,-50.3984 L 812.3047,43.4414 c 21.0124,-21.0124 75.4487,-0.4068 122.0547,46.1992 46.606,46.606 67.2116,101.0423 46.1992,122.0547 L 839.25,353.002 c -10.341,10.341 -28.7843,10.5836 -50.3984,2.6269 C 826.2949,414.8752 848,484.9814 848,560 848,771.5088 675.5088,944 464,944 Z m 0,-96 C 623.6266,848 752,719.6265 752,560 752,400.3734 623.6266,272 464,272 304.3735,272 176,400.3734 176,560 c 0,159.6265 128.3735,288 288,288 z" />
      <glyph
         glyph-name="Zoom In"
         id="glyph4605"
         unicode="K"
         d="M 464,944 C 252.4912,944 80,771.5088 80,560 80,348.4912 252.4912,176 464,176 c 75.0186,0 145.1248,21.7051 204.3711,59.1484 -7.9567,-21.6141 -7.7141,-40.0574 2.6269,-50.3984 L 812.3047,43.4414 c 21.0124,-21.0124 75.4487,-0.4068 122.0547,46.1992 46.606,46.606 67.2116,101.0423 46.1992,122.0547 L 839.25,353.002 c -10.341,10.341 -28.7843,10.5836 -50.3984,2.6269 C 826.2949,414.8752 848,484.9814 848,560 848,771.5088 675.5088,944 464,944 Z m 0,-96 C 623.6266,848 752,719.6265 752,560 752,400.3734 623.6266,272 464,272 304.3735,272 176,400.3734 176,560 c 0,159.6265 128.3735,288 288,288 z m 0,-80 c -26.592,0 -48,-23.9226 -48,-53.6387 V 608 H 309.6387 C 279.9226,608 256,586.592 256,560 c 0,-26.592 23.9226,-48 53.6387,-48 H 416 V 405.6387 C 416,375.9226 437.408,352 464,352 c 26.592,0 48,23.9226 48,53.6387 V 512 H 618.3613 C 648.0774,512 672,533.408 672,560 c 0,26.592 -23.9226,48 -53.6387,48 H 512 V 714.3613 C 512,744.0774 490.592,768 464,768 Z" />
      <glyph
         glyph-name="Zoom Out"
         id="glyph4607"
         unicode="L"
         d="M 464,944 C 252.4912,944 80,771.5088 80,560 80,348.4912 252.4912,176 464,176 c 75.0186,0 145.12481,21.7051 204.37109,59.14844 -7.95671,-21.61412 -7.71401,-40.05747 2.62696,-50.39844 L 812.30469,43.44141 c 21.01244,-21.01241 75.44867,-0.40679 122.05469,46.19921 46.606,46.60602 67.21162,101.04225 46.19921,122.05469 L 839.25,353.00195 c -10.34097,10.34097 -28.78432,10.58367 -50.39844,2.62696 C 826.2949,414.87519 848,484.9814 848,560 848,771.5088 675.5088,944 464,944 Z m 0,-96 C 623.62655,848 752,719.62655 752,560 752,400.37345 623.62655,272 464,272 304.37345,272 176,400.37345 176,560 176,719.62655 304.37345,848 464,848 Z M 309.63867,608 C 279.92261,608 256,586.592 256,560 c 0,-26.592 23.92261,-48 53.63867,-48 H 618.36133 C 648.07739,512 672,533.408 672,560 c 0,26.592 -23.92261,48 -53.63867,48 z" />
      <glyph
         glyph-name="Home/Start"
         id="glyph4623"
         unicode="M"
         d="M 832,896 V 128 L 320,512 Z M 320,512 V 128 H 192 v 768 h 128 z" />
      <glyph
         glyph-name="Rewind/Rew"
         id="glyph4625"
         unicode="N"
         d="M 960,896 V 128 L 576,416 V 128 L 64,512 576,896 V 608 Z" />
      <glyph
         glyph-name="Pause"
         id="glyph4627"
         unicode="O"
         d="M 256,896 V 128 h 192 v 768 z m 320,-0.75 v -768 h 192 v 768 z" />
      <glyph
         glyph-name="Play"
         id="glyph4629"
         unicode="P"
         d="M 256,896 V 128 l 512,384 z" />
      <glyph
         glyph-name="Stop"
         id="glyph4631"
         unicode="Q"
         d="M 192,832 H 832 V 192 H 192 Z" />
      <glyph
         glyph-name="Record/Rec"
         id="glyph4633"
         unicode="R"
         d="M 864,512 A 352,352 0 0 0 512,160 352,352 0 0 0 160,512 352,352 0 0 0 512,864 352,352 0 0 0 864,512 Z" />
      <glyph
         glyph-name="Eject"
         id="glyph4635"
         unicode="S"
         d="M 128,384 H 896 L 512,896 Z M 512,192 H 896 V 320 H 128 V 192 Z" />
      <glyph
         glyph-name="Fast Forward/FFWD"
         id="glyph4694"
         unicode="T"
         d="M 64,896 V 128 L 448,416 V 128 L 960,512 448,896 V 608 Z" />
      <glyph
         glyph-name="End"
         id="glyph4696"
         unicode="U"
         d="M 192,896 V 128 L 704,512 Z M 704,512 V 128 H 832 V 896 H 704 Z" />
      <glyph
         glyph-name="Repeat"
         id="glyph4698"
         unicode="V"
         d="M 112,896 0,640 H 64 V 352 C 64,227.904 163.904,128 288,128 h 512 c 124.096,0 224,99.904 224,224 v 320 c 0,124.096 -99.904,224 -224,224 H 288 c -24.3952,0 -47.8486,-3.877 -69.7988,-11.0234 l 42.0365,-91.2941 C 272.3906,797.6372 280.8308,800 288,800 h 512 c 70.912,0 128,-57.088 128,-128 V 352 C 928,281.088 870.912,224 800,224 H 288 c -70.912,0 -128,57.088 -128,128 v 288 h 64 z" />
      <glyph
         glyph-name="Random"
         id="glyph4700"
         unicode="W"
         d="M 800,896 V 831.5312 C 651.484,827.1325 554.745,791.7099 490.305,735.0469 457.268,705.9976 433.967,672.8599 416,638.7441 398.033,672.8599 374.732,705.9976 341.695,735.0469 272.737,795.6824 166.8,832 0,832 V 736 C 153.2,736 231.263,704.3176 278.305,662.9531 321.611,624.8733 343.178,573.0408 365.055,512 343.178,450.9592 321.611,399.1267 278.305,361.0469 231.263,319.6824 153.2,288 0,288 v -96 c 166.8,0 272.737,36.3176 341.695,96.9531 68.958,60.6355 95.569,139.0723 119.569,207.0723 24,68 45.389,125.5632 92.431,166.9277 43.644,38.376 114.032,68.4004 246.305,72.541 V 672 l 224,128 z M 521.08,397.4004 c -11.526,-31.8286 -24.698,-64.9851 -43.217,-96.8789 3.988,-3.9212 8.133,-7.7793 12.442,-11.5684 64.44,-56.663 161.179,-92.0856 309.695,-96.4843 V 128 l 224,128 -224,96 v -63.4941 c -132.273,4.1406 -202.661,34.165 -246.305,72.541 -12.514,11.0039 -23.199,23.1653 -32.615,36.3535 z" />
      <glyph
         glyph-name="Day/Sun/Daylight/Light"
         id="glyph4651"
         unicode="X"
         d="m 512,991.25 c -17.728,0 -32,-14.272 -32,-32 V 864 c 0,-17.728 14.272,-32 32,-32 17.728,0 32,14.272 32,32 v 95.25 c 0,17.728 -14.272,32 -32,32 z M 289.07617,931.34961 c -5.65653,0.12156 -11.42361,-1.25964 -16.70117,-4.30664 -15.3529,-8.864 -20.57689,-28.35999 -11.71289,-43.71289 l 47.625,-82.48828 c 8.864,-15.3529 28.35999,-20.57689 43.71289,-11.71289 15.3529,8.864 20.57689,28.35999 11.71289,43.71289 l -47.625,82.48828 c -5.817,10.07534 -16.21289,15.78745 -27.01172,16.01953 z m 445.84766,0 c -10.79883,-0.23208 -21.19472,-5.94419 -27.01172,-16.01953 l -47.625,-82.48828 c -8.864,-15.3529 -3.64001,-34.84889 11.71289,-43.71289 15.3529,-8.864 34.84889,-3.64001 43.71289,11.71289 l 47.625,82.48828 c 8.864,15.3529 3.64001,34.84889 -11.71289,43.71289 -5.27756,3.047 -11.04464,4.4282 -16.70117,4.30664 z M 512,768 C 371.06992,768 256,652.93008 256,512 256,371.06992 371.06992,256 512,256 c 140.93008,0 256,115.06992 256,256 0,140.93008 -115.06992,256 -256,256 z m -388.03125,-0.35352 c -10.79883,-0.23207 -21.19472,-5.94614 -27.011719,-16.02148 -8.864,-15.3529 -3.640007,-34.84889 11.712889,-43.71289 l 82.48828,-47.625 c 15.3529,-8.864 34.84889,-3.64001 43.71289,11.71289 8.864,15.3529 3.64001,34.84889 -11.71289,43.71289 l -82.48828,47.625 c -5.27756,3.047 -11.04464,4.43016 -16.70117,4.30859 z m 776.0625,0 c -5.65653,0.12157 -11.42361,-1.26159 -16.70117,-4.30859 l -82.48828,-47.625 C 785.4889,706.84889 780.26491,687.3529 789.12891,672 c 8.864,-15.3529 28.35999,-20.57689 43.71289,-11.71289 l 82.48828,47.625 c 15.3529,8.864 20.57689,28.35999 11.71289,43.71289 -5.817,10.07534 -16.21289,15.78941 -27.01172,16.02148 z M 64.75,544 c -17.728,0 -32,-14.272 -32,-32 0,-17.728 14.272,-32 32,-32 H 160 c 17.728,0 32,14.272 32,32 0,17.728 -14.272,32 -32,32 z M 864,544 c -17.728,0 -32,-14.272 -32,-32 0,-17.728 14.272,-32 32,-32 h 95.25 c 17.728,0 32,14.272 32,32 0,17.728 -14.272,32 -32,32 z M 207.85938,368.02148 c -5.65653,0.12157 -11.42362,-1.26159 -16.70118,-4.30859 l -82.48828,-47.625 C 93.317024,307.22389 88.093031,287.7279 96.957031,272.375 105.82103,257.0221 125.31702,251.79811 140.66992,260.66211 l 82.48828,47.625 c 15.3529,8.864 20.57689,28.35999 11.71289,43.71289 -5.817,10.07534 -16.21289,15.78941 -27.01171,16.02148 z m 608.28124,0 C 805.3418,367.78941 794.94591,362.07534 789.12891,352 c -8.864,-15.3529 -3.64001,-34.84889 11.71289,-43.71289 l 82.48828,-47.625 c 15.3529,-8.864 34.84889,-3.64001 43.71289,11.71289 8.864,15.3529 3.64001,34.84889 -11.71289,43.71289 l -82.48828,47.625 c -5.27756,3.047 -11.04465,4.43016 -16.70118,4.30859 z M 335.29883,239.17969 C 324.5,238.94761 314.10411,233.23354 308.28711,223.1582 l -47.625,-82.48828 c -8.864,-15.3529 -3.64001,-34.84889 11.71289,-43.71289 15.3529,-8.864 34.84889,-3.64001 43.71289,11.71289 l 47.625,82.48828 c 8.864,15.3529 3.64001,34.84889 -11.71289,43.71289 -5.27756,3.047 -11.04464,4.43016 -16.70117,4.3086 z m 353.40234,0 c -5.65653,0.12156 -11.42361,-1.2616 -16.70117,-4.3086 -15.3529,-8.864 -20.57689,-28.35999 -11.71289,-43.71289 l 47.625,-82.48828 c 8.864,-15.3529 28.35999,-20.57689 43.71289,-11.71289 15.3529,8.864 20.57689,28.35999 11.71289,43.71289 l -47.625,82.48828 c -5.817,10.07534 -16.21289,15.78941 -27.01172,16.02149 z M 512,192 c -17.728,0 -32,-14.272 -32,-32 V 64.75 c 0,-17.728 14.272,-32 32,-32 17.728,0 32,14.272 32,32 V 160 c 0,17.728 -14.272,32 -32,32 z" />
      <glyph
         glyph-name="Night/Moon/Dark"
         id="glyph4653"
         unicode="Y"
         d="m 439.08709,927.25007 a 416.00052,421.26426 0 0 1 -268.81744,-393.83162 416.00052,421.26426 0 0 1 12.7874,-101.512 c 18.2897,5.506 37.63516,8.48165 57.62962,8.48155 a 56.016498,56.015994 0 0 0 0.1094,0 c 19.72765,-0.0385 39.22908,-3.00589 57.92874,-8.64735 27.17726,28.39862 65.22722,45.58443 106.07338,45.63834 a 56.016498,56.015994 0 0 0 0.0735,0 c 16.73126,-9e-5 32.85066,-2.8755 47.89335,-8.14652 a 416.00052,421.26426 0 0 0 -74.49374,239.71244 416.00052,421.26426 0 0 0 60.81579,218.30516 z m 110.30735,-72.94957 -7.1723,-62.52625 -58.01763,-24.39173 57.25015,-26.14377 5.26982,-62.71428 42.55516,46.36994 61.2756,-14.36839 -30.95061,54.80021 32.60009,53.83615 -61.68412,-12.50182 z M 780.45307,783.21577 767.599,671.14713 663.60928,627.42832 766.223,580.57124 l 9.44568,-112.40709 76.27314,83.10966 109.82531,-25.75233 -55.47415,98.22159 58.43126,96.49178 -110.55859,-22.40724 z M 404.87169,421.3686 A 91.023379,90.979274 0 0 1 319.3426,361.18752 145.89462,145.82393 0 0 1 240.68667,384.3776 145.89462,145.82393 0 0 1 94.791343,238.55367 145.89462,145.82393 0 0 1 240.25763,92.75196 v -0.45125 h 237.77454 a 118.88766,118.83007 0 0 1 118.88812,118.83064 118.88766,118.83007 0 0 1 -101.12148,117.34526 91.023379,90.979274 0 0 1 0.0957,1.91271 91.023379,90.979274 0 0 1 -91.02283,90.97928 z m 193.36135,-83.78312 c 33.76082,-32.05195 54.6358,-77.19347 54.69814,-126.38234 a 56.016498,56.015994 0 0 0 0,-0.0718 c 1.8e-4,-35.79004 -11.00158,-69.2126 -29.77288,-97.05415 a 416.00052,421.26426 0 0 1 318.29534,201.0361 416.00052,421.26426 0 0 0 -147.18246,-27.43258 416.00052,421.26426 0 0 0 -196.03814,49.90477 z" />
      <glyph
         glyph-name="Connected"
         id="glyph4642"
         unicode="Z"
         d="m 263.09841,602.5097 c -12.53559,-12.5356 -12.53559,-32.7193 0,-45.2549 l 17.98286,-17.9828 c -7.97042,-6.6453 -15.8854,-13.8608 -23.63971,-21.6151 L 234.81414,495.0294 C 172.1362,432.3515 144.38367,359.1857 172.58874,330.9807 L 195.21616,308.3532 127.33391,240.471 240.471,127.3339 l 67.88225,67.8823 16.97056,-16.9706 c 28.20508,-28.2051 101.37083,-0.4525 164.04877,62.2254 L 512,263.0984 c 7.75431,7.7543 14.96975,15.6694 21.61512,23.6397 l 23.63971,-23.6397 c 12.53559,-12.5356 32.71925,-12.5356 45.25484,0 l 45.25483,45.2548 c 12.53559,12.5356 12.53559,32.7193 0,45.2549 l -73.5391,73.5391 -152.73507,152.7351 -67.88225,67.8822 c -12.53559,12.5356 -32.71924,12.5356 -45.25483,0 z M 376.2355,715.6468 c -12.53559,-12.5356 -12.53559,-32.7193 0,-45.2549 L 670.39192,376.2355 c 12.53559,-12.5356 32.71924,-12.5356 45.25483,0 l 45.25484,45.2548 c 12.53559,12.5356 12.53559,32.7193 0,45.2549 l -23.63971,23.6397 c 7.97035,6.6454 15.8854,13.8608 23.63971,21.6151 l 22.62741,22.6274 c 62.67795,62.678 90.43048,135.8437 62.2254,164.0488 l -16.97056,16.9706 67.88225,67.8822 -113.13709,113.1371 -67.88225,-67.8823 -22.62741,22.6275 c -28.20508,28.205 -101.37083,0.4525 -164.04878,-62.2254 l -22.62741,-22.6275 c -7.75431,-7.7543 -14.96982,-15.6692 -21.61513,-23.6397 l -17.98285,17.9829 c -12.53559,12.5356 -32.71925,12.5356 -45.25484,0 z" />
      <glyph
         glyph-name="Disconnected"
         id="glyph4644"
         unicode="ö"
         d="m 195.21616,534.62742 c -12.53559,-12.53559 -12.53559,-32.71925 0,-45.25484 l 17.98289,-17.98288 c -7.97037,-6.64536 -15.88543,-13.86079 -23.63974,-21.6151 L 166.93189,427.14719 C 104.25395,364.46924 76.501419,291.30349 104.70649,263.09841 L 127.33391,240.471 59.45166,172.58875 172.58875,59.45166 240.471,127.33391 257.44156,110.36335 c 28.20507,-28.20508 101.37083,-0.45255 164.04877,62.2254 l 22.62742,22.62741 c 7.75431,7.75431 14.96973,15.66938 21.61509,23.63974 l 23.63974,-23.63974 c 12.53559,-12.53559 32.71925,-12.53559 45.25484,0 l 45.25483,45.25484 c 12.53559,12.53559 12.53559,32.71924 0,45.25483 L 506.34315,359.26494 353.60808,512 285.72583,579.88225 c -12.53559,12.53559 -32.71924,12.53559 -45.25483,0 z M 444.11775,783.529 c -12.53559,-12.53559 -12.53559,-32.71924 0,-45.25483 l 45.25483,-45.25483 -90.50966,-90.50967 c -12.53559,-12.53559 -12.53559,-32.71925 0,-45.25484 l 22.62741,-22.62741 c 12.53559,-12.53559 32.71925,-12.53559 45.25484,0 l 90.50966,90.50966 67.88225,-67.88225 -90.50966,-90.50966 c -12.53559,-12.53559 -12.53559,-32.71925 0,-45.25484 l 22.62741,-22.62741 c 12.53559,-12.53559 32.71925,-12.53559 45.25484,0 l 90.50967,90.50966 45.25483,-45.25483 c 12.53559,-12.53559 32.71924,-12.53559 45.25483,0 l 45.25484,45.25483 c 12.53559,12.53559 12.53559,32.71925 0,45.25484 l -23.63974,23.63974 c 7.97036,6.64536 15.88543,13.86078 23.63974,21.61509 l 22.62741,22.62742 c 62.67795,62.67794 90.43048,135.8437 62.2254,164.04877 L 896.66609,783.529 964.54834,851.41125 851.41125,964.54834 783.529,896.66609 760.90159,919.29351 c -28.20508,28.20507 -101.37083,0.45254 -164.04878,-62.2254 L 574.2254,834.44069 c -7.75431,-7.75431 -14.96974,-15.66937 -21.6151,-23.63974 l -17.98288,17.98289 c -12.53559,12.53559 -32.71925,12.53559 -45.25484,0 z" />
      <glyph
         glyph-name="Headphones/Headphones Active"
         id="glyph983"
         unicode="ä"
         d="M 512.70703,960 C 268.33897,960 66.59375,775.74217 66.59375,544 V 376.98633 A 180.1765,198.19415 15 0 1 69.683594,279.48438 180.1765,198.19415 15 0 1 295.01758,134.67773 l -2.86914,10.70899 -99.72461,372.17187 A 180.1765,198.19415 15 0 1 162.59375,506.16992 V 544 c 0,176.00263 153.37152,320 350.11328,320 196.74179,0 350.11328,-143.99737 350.11328,-320 v -38.47266 a 198.19415,180.1765 75 0 1 -31.24414,12.03125 l -99.72461,-372.17187 -2.86914,-10.70899 a 198.19415,180.1765 75 0 1 225.33399,144.80665 198.19415,180.1765 75 0 1 4.40625,91.33789 h 0.0976 V 544 c 0,231.74217 -201.7452,416 -446.11328,416 z m 219.14453,-814.61328 96.85352,361.46289 c 11.92373,44.49996 -9.52517,88.64266 -48.0918,98.97656 -38.56663,10.3339 -79.21299,-17.16996 -91.13672,-61.66992 L 592.62305,182.69336 c -11.92373,-44.49996 9.52516,-88.64462 48.09179,-98.97852 38.56663,-10.33389 79.21299,17.17192 91.13672,61.67188 z m -439.70312,0 c 11.92372,-44.49996 52.57009,-72.00577 91.13672,-61.67188 38.56663,10.3339 60.01552,54.47856 48.09179,98.97852 l -96.85351,361.46289 c -11.92373,44.49996 -52.57009,72.00382 -91.13672,61.66992 -38.56663,-10.3339 -60.01553,-54.4766 -48.0918,-98.97656 z" />
      <glyph
         glyph-name="Headphones Mute"
         id="glyph985"
         unicode="ü"
         d="M 512.70703,960 C 268.33897,960 66.59375,775.74217 66.59375,544 V 376.98633 A 180.1765,198.19415 15 0 1 69.683594,279.48438 180.1765,198.19415 15 0 1 295.01758,134.67773 l -2.86914,10.70899 -99.72461,372.17187 A 180.1765,198.19415 15 0 1 162.59375,506.16992 V 544 c 0,176.00263 153.37152,320 350.11328,320 196.74179,0 350.11328,-143.99737 350.11328,-320 v -38.47266 a 198.19415,180.1765 75 0 1 -31.24414,12.03125 l -99.72461,-372.17187 -2.86914,-10.70899 a 198.19415,180.1765 75 0 1 225.33399,144.80665 198.19415,180.1765 75 0 1 4.40625,91.33789 h 0.0976 V 544 c 0,231.74217 -201.7452,416 -446.11328,416 z m 219.14453,-814.61328 96.85352,361.46289 c 11.92373,44.49996 -9.52517,88.64266 -48.0918,98.97656 -9.43207,2.52732 -18.98651,2.77813 -28.2168,1.08399 0.5724,-30.45887 -11.24126,-60.65026 -33.84375,-82.62305 l 0.64258,0.63477 -47.63672,-47.63868 -0.49414,-1.83789 48.13086,-48.13281 -0.61719,0.60938 c 44.18854,-43.00631 44.68339,-115.86347 1.08204,-159.46485 -29.79017,-29.79014 -73.23587,-38.98934 -111.48828,-27.73828 l -15.54883,-58.02539 c -11.92373,-44.49996 9.52516,-88.64462 48.09179,-98.97852 38.56663,-10.33389 79.21299,17.17192 91.13672,61.67188 z m -439.70312,0 c 11.92372,-44.49996 52.57009,-72.00577 91.13672,-61.67188 38.56663,10.3339 60.01552,54.47856 48.09179,98.97852 l -15.54883,58.02539 c -38.2524,-11.25106 -81.69811,-2.05186 -111.48828,27.73828 -43.60135,43.60138 -43.1065,116.45853 1.08204,159.46485 l -0.61719,-0.60938 48.13086,48.13086 -0.49414,1.8418 -47.63672,47.63672 0.64258,-0.63672 c -22.59002,21.96013 -34.41848,52.14684 -33.84375,82.625 -9.23029,1.69414 -18.78473,1.44333 -28.2168,-1.08399 -38.56663,-10.3339 -60.01553,-54.4766 -48.0918,-98.97656 z m 91.34961,507.21484 c -19.53573,-0.009 -37.11682,-11.85625 -44.46094,-29.95898 -7.34411,-18.10273 -2.98628,-38.84962 11.02148,-52.4668 l 94.0586,-94.05859 -94.0586,-94.0586 c -19.18189,-18.66869 -19.3899,-49.41868 -0.46289,-68.3457 18.92702,-18.92701 49.67702,-18.719 68.34571,0.46289 L 512,408.23438 l 94.05859,-94.0586 c 18.66869,-19.18189 49.41869,-19.3899 68.34571,-0.46289 18.92701,18.92702 18.719,49.67701 -0.46289,68.3457 l -94.0586,94.0586 94.0586,94.05859 c 14.19653,13.80103 18.46274,34.90202 10.74414,53.13477 -7.7186,18.23274 -25.83838,29.85649 -45.62891,29.26953 -12.46824,-0.36951 -24.30312,-5.57768 -32.99805,-14.52149 L 512,544 417.94141,638.05859 c -9.04403,9.30314 -21.46866,14.54917 -34.44336,14.54297 z" />
      <glyph
         glyph-name="Microphone/Mic/Micro"
         id="glyph990"
         unicode="Ä"
         d="M 544,960 C 420.73426,960 320,859.26574 320,736 V 512 c 0,-123.26574 100.73426,-224 224,-224 123.26574,0 224,100.73426 224,224 v 224 c 0,123.26574 -100.73426,224 -224,224 z m 0,-96 c 48.27646,0 89.53977,-25.47516 111.36914,-64 H 544 c -17.728,0 -32,-14.272 -32,-32 0,-17.728 14.272,-32 32,-32 H 672 V 704 H 544 c -17.728,0 -32,-14.272 -32,-32 0,-17.728 14.272,-32 32,-32 H 672 V 608 H 544 c -17.728,0 -32,-14.272 -32,-32 0,-17.728 14.272,-32 32,-32 h 128 v -32 c 0,-71.74226 -56.25774,-128 -128,-128 -71.74226,0 -128,56.25774 -128,128 v 224 c 0,71.74226 56.25774,128 128,128 z M 847.27734,624.67969 A 48.004811,48.004811 0 0 1 800,576 V 512 C 800,369.34574 686.65424,256 544,256 401.34576,256 288,369.34574 288,512 v 64 A 48.004811,48.004811 0 0 1 239.27734,624.67773 48.004811,48.004811 0 0 1 192,576 v -64 c 0,-137.14138 78.72729,-256.14269 193.38281,-314.22266 l -1.75,0.43164 C 438.60474,170.94648 407.21071,161.68579 399.78906,160 H 336 c -26.592,0 -48,-21.408 -48,-48 0,-26.592 21.408,-48 48,-48 h 416 c 26.592,0 48,21.408 48,48 0,26.592 -21.408,48 -48,48 h -62.96094 c -7.71876,1.78693 -38.3031,11.12883 16.25782,38.1875 l -3.6504,-0.90039 C 816.82828,255.1859 896,374.47183 896,512 v 64 a 48.004811,48.004811 0 0 1 -48.72266,48.67969 z M 550.91406,160.07422 550.61328,160 H 544 538.40234 l -0.21679,0.0527 C 540.12037,160.02128 542.05778,160 544,160 c 2.31052,0 4.61404,0.0297 6.91406,0.0742 z" />
      <glyph
         glyph-name="Microphone Mute/Mic Mute/Micro Mute"
         id="glyph992"
         unicode="Ö"
         d="M 544,960 C 420.73426,960 320,859.26574 320,736 V 512 c 0,-107.9063 77.19503,-198.54609 179.12305,-219.45898 -7.67003,31.9688 -1.35727,66.83598 18.87304,93.99804 C 459.11852,398.25275 416,449.19233 416,512 v 224 c 0,71.74226 56.25774,128 128,128 48.27646,0 89.53977,-25.47516 111.36914,-64 H 544 c -17.728,0 -32,-14.272 -32,-32 0,-17.728 14.272,-32 32,-32 H 672 V 704 H 544 c -17.728,0 -32,-14.272 -32,-32 0,-9.24448 3.88716,-17.54373 10.11523,-23.375 20.93782,24.61496 52.03291,39.62164 85.35352,39.63867 a 64.0064,64.0064 0 0 1 0.002,0 c 30.24576,0.0144 59.28069,-12.24507 80.36328,-33.93164 l -0.63476,0.64258 48.80469,-48.80273 L 768,638.16797 V 736 C 768,859.26574 667.26574,960 544,960 Z M 239.27734,624.67773 A 48.004811,48.004811 0 0 1 192,576 v -64 c 0,-137.14138 78.72729,-256.14269 193.38281,-314.22266 l -1.75,0.43164 C 438.60474,170.94648 407.21071,161.68579 399.78906,160 H 336 c -26.592,0 -48,-21.408 -48,-48 0,-26.592 21.408,-48 48,-48 h 416 c 26.592,0 48,21.408 48,48 0,26.592 -21.408,48 -48,48 h -62.96094 c -7.71876,1.78693 -38.30312,11.12883 16.25782,38.1875 l -3.6504,-0.90039 c 27.3547,13.75047 52.67423,30.96913 75.38868,51.06641 l -41.03125,41.0332 -48.80469,-48.80469 0.60937,0.61914 c -43.0063,-44.18857 -115.86347,-44.68335 -159.46484,-1.08203 -5.44504,5.44503 -10.20303,11.34545 -14.27344,17.58789 C 385.81655,272.27679 288,379.48271 288,512 v 64 a 48.004811,48.004811 0 0 1 -48.72266,48.67773 z m 368.22461,-0.41406 c -19.53573,-0.01 -37.11877,-11.85628 -44.46289,-29.95898 -7.34411,-18.1028 -2.98432,-38.8496 11.02344,-52.4668 L 668.12109,447.7793 574.0625,353.7207 c -19.18189,-18.6687 -19.3899,-49.4187 -0.46289,-68.3457 18.92702,-18.927 49.67701,-18.71901 68.3457,0.46289 l 94.0586,94.05859 94.05859,-94.05859 c 18.66869,-19.1819 49.41868,-19.38989 68.3457,-0.46289 18.92701,18.927 18.719,49.677 -0.46289,68.3457 l -94.05859,94.0586 94.05859,94.05859 c 14.19653,13.801 18.46274,34.90207 10.74414,53.13477 -7.7186,18.2328 -25.83837,29.85653 -45.6289,29.26953 -12.46824,-0.3695 -24.30312,-5.57769 -32.99805,-14.52149 l -94.05859,-94.05859 -94.0586,94.05859 c -9.04403,9.3031 -21.46866,14.54917 -34.44336,14.54297 z M 550.91406,160.07422 550.61328,160 H 544 538.40234 l -0.21679,0.0527 C 540.12037,160.02128 542.05778,160 544,160 c 2.31052,0 4.61404,0.0297 6.91406,0.0742 z" />
      <glyph
         glyph-name="Trash/Delete"
         id="glyph979"
         unicode="Ü"
         d="M 483.67578,931.43359 C 446.18301,931.43359 416,901.3584 416,864 H 288 c -53.184,0 -96,-42.816 -96,-96 h 672 c 0,53.184 -42.816,96 -96,96 H 640 c 0,37.3584 -30.18302,67.43359 -67.67578,67.43359 z M 257,703.5 v -575 h 543 v 575 z M 320,608 h 32 V 224 h -32 z m 64,0 h 64 V 224 h -64 z m 96,0 h 95.5 V 224 H 480 Z m 128,0 h 64 V 224 h -64 z m 96,0 h 32 V 224 h -32 z" />
      <glyph
         glyph-name="Save/Diskette"
         id="glyph993"
         unicode="!"
         d="m 224,896 c -53.184,0 -96,-42.816 -96,-96 V 224 c 0,-53.184 42.816,-96 96,-96 h 576 c 53.184,0 96,42.816 96,96 v 480 c 0,53.184 -138.816,192 -192,192 h -0.5 V 704.5 c 0,-35.456 -28.544,-64 -64,-64 H 352 c -35.456,0 -64,28.544 -64,64 V 896 Z m 368,0 c -26.592,0 -48,-21.408 -48,-48 v -96 c 0,-26.592 21.408,-48 48,-48 26.592,0 48,21.408 48,48 v 96 c 0,26.592 -21.408,48 -48,48 z M 277.5,513 h 469 c 29.639,0 53.5,-23.861 53.5,-53.5 v -214 C 800,215.861 776.139,192 746.5,192 h -469 c -29.639,0 -53.5,23.861 -53.5,53.5 v 214 c 0,29.639 23.861,53.5 53.5,53.5 z" />
      <glyph
         glyph-name="Load/Folder/Open"
         id="glyph1012"
         unicode="&quot;"
         d="M 225.49023,896 C 153.1925,896 93.490234,836.29773 93.490234,764 V 652 372 260 c 0,-72.29773 59.702266,-132 131.999996,-132 H 239.23438 416 743.23438 c 72.29773,0 134.31828,49.36132 154.19726,118.78711 l 70.15234,245 c 9.93949,34.7129 5.67127,72.14027 -14.60156,100.54687 C 932.7096,620.74059 897.6391,637 861.49023,637 v 15 c 0,72.29773 -59.70226,132 -132,132 H 467.7793 c -9.80677,62.96252 -64.79939,112 -130.28907,112 z m 0,-96 h 112 c 20.77427,0 36,-15.22573 36,-36 v -76 h 356 c 20.77427,0 36,-15.22573 36,-36 v -15 h -408 C 285.1925,637 223.17194,587.63869 203.29297,518.21289 L 189.49023,470.00781 V 652 764 c 0,20.77427 15.22574,36 36,36 z m 132,-259 h 504 c 10.38714,0 11.95321,-2.47224 13.35157,-4.43164 1.39835,-1.9594 3.83653,-6.53237 0.45117,-18.35547 l -70.15235,-245 C 798.3699,249.56668 764.00864,224 743.23438,224 H 416 239.23438 c -10.38714,0 -11.95322,2.47225 -13.35157,4.43164 -1.39835,1.95939 -3.83653,6.53237 -0.45117,18.35547 l 70.15234,245 C 302.3547,515.43331 336.71597,541 357.49023,541 Z" />
    </font>
</defs>
</svg>
